#TITLE:vertexbeta;
#SUBTITLE:;
#ARTIST:Unknown artist;
#TITLETRANSLIT:;
#SUBTITLETRANSLIT:;
#ARTISTTRANSLIT:;
#CREDIT:;
#BANNER:;
#BACKGROUND:;
#LYRICSPATH:;
#CDTITLE:;
#MUSIC:vertexbeta.mp3;
#OFFSET:-1.260;
#SAMPLESTART:27.846;
#SAMPLELENGTH:12.000;
#SELECTABLE:YES;
#BPMS:0.000=213.220,68.000=300.000,88.000=402.019,112.063=451.258,115.000=290.881,208.000=200.000;
#STOPS:44.000=1.660
,112.000=9.380
,335.000=0.020
;
#BGCHANGES:;
// cache tags:
#FIRSTBEAT:0.000;
#LASTBEAT:642.000;
#SONGFILENAME:Songs/Music V.I.P ^_^/vertexbeta/vertexbeta.sm;
#HASMUSIC:0;
#HASBANNER:0;
#MUSICLENGTH:100.000;
// end cache tags

//---------------dance-single - ----------------
#NOTES:
     dance-single:
     :
     Easy:
     1:
     1.000,1.000,1.000,1.000,1.000,535.000,311.000,343.000,0.000,312.000:
0000
0000
0000
0000
0000
0000
1111
1111
1111
1111
1111
1111
1111
1111
1111
1111
1111
1111
1111
1111
1111
1111
1111
1111
,
1111
1111
1111
1111
1111
1111
1111
1111
1111
1111
1111
1111
1111
1111
1111
1111
1111
1111
1111
1111
1111
1111
1111
1111
,
1111
1111
1111
1111
1111
1111
1110
0111
0110
0110
0110
0110
0110
1010
1010
1010
0101
0001
1110
2201
3020
0332
0003
1200
,
0302
0003
0000
1120
0031
1100
0200
1320
1132
0003
2010
3002
1113
2200
3020
2330
3101
1220
2330
0002
3003
1100
1102
2223
,
3330
0000
0000
0000
0000
0000
0000
0000
2220
0000
0000
0000
0000
0000
0000
0000
3332
0000
0000
0000
0000
0000
0000
0000
0000
0000
0000
0000
0000
0000
0000
0000
2203
0000
0000
0000
0000
0000
0000
0000
3310
0000
0000
0000
0000
0000
0000
0000
2202
0000
0000
0000
0000
0000
0000
0000
3300
0000
0000
0000
0000
0000
0000
0000
0203
0000
0000
0000
0000
0000
0000
0000
0300
0000
0000
0000
0000
0000
0000
0000
2220
0000
0000
0000
0000
0000
0000
0000
3330
0000
0000
0000
0000
0000
0000
0000
1111
0000
0000
1110
0000
0000
1110
0000
1111
1111
0000
0000
1111
0000
0000
1111
0000
0000
1111
0000
0000
1111
0000
0000
1111
0000
0000
1111
0000
0000
1111
0000
0000
1111
0000
0000
1111
0000
0000
1111
0000
0000
1111
0000
0000
0000
0000
0000
0000
0000
0000
0000
0000
0000
0000
0000
0000
0000
0000
0000
0000
0000
0000
0000
0000
0000
0000
0000
0000
0000
0000
0000
0000
0000
0000
0000
0000
0000
0000
0000
0000
0000
0000
0000
0000
0000
0000
0000
0000
0000
0000
0000
0000
1111
0000
0000
,
0000
0000
0000
0000
0000
1111
0000
0000
0000
0000
0000
0000
0000
1111
0000
0000
0000
0000
0000
0000
0000
1111
0000
0000
0000
0000
0000
0000
0000
1111
0000
0000
0000
0000
0000
0000
0000
1111
0000
0000
0000
0000
0000
0000
0000
1111
0000
0000
0000
0000
0000
0000
0000
1111
0000
0000
0000
0000
0000
0000
0000
1111
0000
0000
0000
0000
0000
0000
0000
1111
0000
0000
0000
0000
0000
0000
0000
1111
0000
0000
0000
0000
0000
0000
0000
1111
0000
0000
0000
0000
0000
0000
0000
1111
0000
0000
0000
0000
0000
0000
0000
1111
0000
0000
0000
0000
0000
0000
0000
1111
0000
0000
0000
0000
0000
0000
0000
1111
0000
0000
0000
0000
0000
0000
0000
1111
0000
0000
0000
0000
0000
0000
0000
1111
0000
0000
0000
0000
0000
0000
0000
1111
0000
0000
0000
0000
0000
0000
0000
1111
0000
0000
0000
0000
0000
0000
0000
1111
0000
0000
0000
0000
0000
0000
0000
1111
0000
0000
0000
0000
0000
0000
0000
1111
0000
0000
0000
0000
0000
0000
0000
1111
0000
0000
0000
0000
0000
0000
0000
1111
0000
0000
,
0000
0000
0000
0000
0000
1111
0000
0000
0000
0000
0000
0000
0000
1111
0000
0000
0000
0000
0000
0000
0000
1111
0000
0000
0000
0000
0000
0000
0000
1111
0000
0000
0000
0000
0000
0000
0000
1111
0000
0000
0000
0000
0000
0000
0000
1111
0000
0000
0000
0000
0000
0000
0000
1111
0000
0000
0000
0000
0000
0000
0000
1111
0000
0000
0000
0000
0000
0000
0000
1111
0000
0000
0000
0000
0000
0000
0000
1111
0000
0000
0000
0000
0000
0000
0000
1111
0000
0000
0000
0000
0000
0000
0000
1111
0000
0000
1111
0000
0000
1111
0000
0000
1111
0000
0000
1111
0000
0000
1111
0000
0000
1111
0000
0000
1111
0000
0000
1111
0000
0000
1111
0000
0000
1111
0000
0000
1111
0000
1111
0000
0000
0000
1111
0000
0000
0000
1111
0000
0000
0000
1111
0000
0000
0000
1111
0000
0000
0000
1111
0000
0000
0000
1111
0000
0000
0000
1111
0000
0000
0000
1111
0000
0000
0000
1111
0000
0000
0000
1111
0000
0000
0000
1111
0000
0000
0000
1111
0000
0000
0000
1111
0000
0000
0000
1111
0000
0000
0000
1110
0000
0000
0000
,
1011
0000
0000
0000
0000
0000
0000
0000
0110
0000
0000
0000
0110
0000
0000
0000
0110
0000
0000
0000
0100
0000
0000
0000
0100
0000
0000
0000
0110
0000
0000
0000
0110
0000
0000
0000
0110
0000
0000
0000
0120
0000
0000
0000
2030
0000
0000
0000
3002
0000
0000
0000
1003
0000
0000
0000
0100
0000
0000
0000
0010
0000
0000
0000
0001
0000
0000
0000
1000
0000
0000
0000
0200
0000
0000
0000
0310
0000
0000
0000
0001
0000
0000
0000
2000
0000
0000
0000
3001
0000
0000
0000
0100
0000
0000
0000
0010
0000
0000
0000
0010
0000
0000
0000
2000
0000
0000
0000
3001
0000
0000
0000
2000
0000
0000
0000
3100
0000
0000
0000
0000
0000
0000
1111
0000
0000
1111
0000
0000
1111
0000
0000
1111
0000
0000
1000
0000
0000
0100
0000
0000
0011
0000
0000
0111
0000
0000
2000
0000
0000
3001
0000
0000
2000
0000
0000
3001
0000
0000
2200
0000
0000
3312
0000
0000
0003
0000
0000
1220
0000
0000
0332
0000
0000
2103
0000
0000
3120
0000
0000
0032
0000
0000
2203
0000
0000
3322
0000
0000
0033
0000
0000
,
0000
2000
3001
0100
0010
1000
0001
1000
0010
0001
0100
1000
0001
1000
0100
0010
0000
1000
0002
0103
1000
0001
1000
0001
1000
0001
1000
0001
1000
0001
1000
0001
1000
0001
0100
0010
0010
0100
0100
0010
0100
0010
1000
0001
2200
3310
0001
2200
3310
0001
0000
1111
1111
1111
1111
1111
1111
1111
1111
1111
1111
0000
1011
1111
,
1111
0000
1111
1111
1111
1111
0000
0000
1110
1110
1111
1111
1111
1111
1110
0002
2213
3310
1022
0233
0302
0023
1030
0000
1220
0300
0000
0100
0002
0003
0000
0200
1300
0030
2220
3300
0031
2220
0000
3330
0202
2003
0020
3300
0230
0002
2003
0020
3300
0032
2203
0000
3320
0000
2231
0020
3330
0002
0023
2000
3001
2000
0000
0030
,
3220
0330
2200
0020
0000
0000
0000
0000
3330
0002
2003
0220
3300
0000
0230
0300
0002
0203
1020
0330
2202
0003
3320
2030
0202
3303
0000
2200
3320
0032
0003
2000
0220
3330
0002
2203
3310
1010
0002
2203
3312
2203
3320
0032
0003
2220
3332
2003
3110
0002
0003
2200
3020
0330
0002
2003
3220
0330
2000
0201
0300
3000
0200
0000
,
0000
2000
3020
0301
0030
0000
0000
0000
0000
1000
0100
0100
0000
0010
0001
0020
0230
0300
1000
0000
0000
0000
1200
0311
0000
2200
3322
0033
2000
3122
0033
1222
0333
2200
3312
2003
3122
0033
1122
0033
0000
0000
0000
0000
0000
0000
0000
2000
0000
3000
0200
0022
2333
3022
1233
2310
3220
0330
2002
3223
2331
3222
0333
0002
,
0003
2001
3022
2033
3222
0333
2001
3220
2331
3222
0333
2010
3220
2331
3220
2330
3011
1022
2033
3222
0333
2022
3233
2311
3020
0030
0000
0100
2000
3000
2002
3003
1101
2200
3300
1122
0033
0011
0100
0000
0022
0030
0213
2300
3122
1133
1211
2310
3120
1232
1323
1030
2112
3123
2032
3023
0230
2312
3203
0300
0022
2233
3300
0222
,
2033
3300
2211
3302
2003
3000
0222
2033
3322
2033
3222
2333
3000
0000
0000
2200
3020
2030
0000
3001
2000
3000
0002
2003
3000
0001
2000
3002
2023
3002
0333
0000
0000
0000
2000
3200
0320
0030
0001
0020
0032
0203
0320
2030
3000
0010
0100
0021
0030
0210
0322
1033
0010
0112
1003
0211
0302
1103
0000
0000
0002
0103
0100
0200
,
0300
0020
0230
0020
0300
0230
0322
0033
0211
0322
0233
0322
0133
0000
0000
0000
0000
0000
0000
2000
3000
0100
0010
1100
2001
3020
0230
0302
2003
3010
0100
2001
3020
0230
2301
3020
0230
2302
3023
0230
2302
3003
0110
0110
0000
0000
0000
0000
0000
0000
0000
0000
0000
0000
0000
0000
0000
0000
0000
0000
0000
0000
0000
0000
;

//---------------dance-single - ----------------
#NOTES:
     dance-single:
     :
     Challenge:
     1:
     1.000,1.000,1.000,0.020,0.545,452.000,284.000,2.000,0.000,278.000:
0000
1111
1111
1111
1111
0000
1111
0000
,
1111
1111
1111
1111
,
1111
1111
1111
1111
1111
1111
1110
1110
,
1111
1111
1111
1111
1110
1110
1111
1111
,
1111
1111
1110
1110
1111
1111
1111
1111
,
0000
0000
0000
1111
1111
1111
1111
1111
,
1111
1111
1111
1111
1111
1111
1110
1110
,
1111
1111
1000
0100
0010
0001
0010
0100
,
1000
0100
0010
0001
0010
0100
1000
0100
,
0010
0001
0010
1100
1111
1100
0011
0110
,
1100
0011
1111
1111
1111
1111
1111
1111
,
1111
1111
1110
1110
1111
1111
1111
1111
,
1111
1111
1111
1111
1111
1111
1111
1111
,
1111
1111
1110
1110
1111
1111
1111
1111
,
1110
1111
1111
1111
1111
1111
1111
1111
,
1111
1111
1111
1111
1111
1111
1111
1111
,
1111
1111
1111
1111
1111
1111
1111
1111
,
1111
0000
0000
0000
0000
0000
0000
0000
0000
0000
0000
0000
0000
0000
0000
0000
0000
0000
0000
0000
0000
0000
0000
0000
1111
0000
0000
0000
0000
0000
0000
0000
0000
0000
0000
0000
0000
0000
0000
0000
0000
0000
0000
0000
0000
0000
0000
0000
1111
0000
0000
0000
0000
0000
0000
0000
0000
0000
0000
0000
0000
0000
0000
0000
0000
0000
0000
0000
0000
0000
0000
0000
1111
0000
0000
0000
0000
0000
0000
0000
0000
0000
0000
0000
0000
0000
0000
0000
0000
0000
0000
0000
0000
0000
0000
0000
1111
0000
0000
1111
0000
0000
1111
0000
0000
1111
0000
0000
1111
0000
0000
1111
0000
0000
1111
0000
0000
1111
0000
0000
1111
0000
0000
1111
0000
0000
0000
0000
0000
1111
0000
0000
0000
0000
0000
0000
0000
0000
0000
0000
0000
0000
0000
0000
0000
0000
0000
0000
0000
0000
0000
0000
1112
0000
0000
0000
0000
0000
0000
0000
0003
0000
0000
0000
0000
0000
0000
0000
1111
0000
0000
0000
0000
0000
0000
0000
1111
0000
0000
0000
0000
0000
0000
0000
1111
0000
0000
0000
0000
0000
0000
0000
,
1111
1111
1111
1111
1111
1111
1111
1111
1111
1111
1111
1111
1111
1111
1111
0000
0000
0000
1111
0000
0000
0000
0000
0000
,
1111
1111
1111
1111
,
1111
1111
1111
1111
,
1111
1111
1111
1111
,
1111
0000
0000
1111
0000
0000
1111
0000
0000
1111
0000
0000
1111
0000
0000
1111
0000
0000
1111
0000
0000
1111
0000
0000
1111
0000
0000
1111
0000
0000
1111
0000
0000
1111
0000
0000
1111
0000
0000
1111
0000
0000
1111
0000
0000
1111
0000
0000
1111
0000
0000
1111
0000
0000
1111
0000
0000
1111
0000
0000
1111
0000
0000
1111
0000
0000
1111
0000
0000
1111
0000
0000
1111
0000
0000
1111
0000
0000
1111
0000
1111
1111
0000
0000
1111
0000
0000
1111
1111
0000
1111
0000
1111
1111
0000
0000
1111
0000
0000
1111
0000
0000
1111
0000
0000
1111
0000
0000
1111
0000
0000
1111
0000
0000
1111
0000
0000
1111
0000
0000
1111
0000
0000
1111
0000
0000
1111
0000
0000
1111
0000
0000
1111
0000
0000
1111
0000
0000
1111
0000
0000
1111
0000
0000
1111
0000
0000
1111
0000
0000
1111
0000
0000
1111
0000
0000
1111
0000
0000
1111
0000
0000
1111
0000
0000
1111
0000
0000
1111
0000
0000
1111
0000
0000
1111
0000
0000
0000
0000
0000
0000
0000
0000
0000
0000
0000
0000
0000
0000
0000
0000
0000
,
0000
1000
0100
0010
0001
0010
0100
1000
0100
0010
0001
0010
0100
1000
0100
0010
0001
0010
0100
1000
0100
0010
0001
0010
0100
1000
0100
0010
0001
0010
0100
1000
1111
0010
0001
0010
0100
1000
0000
0000
0000
0000
0000
0000
0000
0000
0000
0000
1111
0000
0000
0000
0000
0000
0000
0000
0000
0000
0000
0000
0000
0000
0000
0000
,
1111
1111
1111
1111
,
1111
1111
1111
1111
,
1111
1111
1111
1111
,
1111
1111
1111
1111
,
1111
1111
1111
1111
,
1111
1111
1111
1111
,
1111
1111
1111
1111
,
2000
0010
0001
0010
0100
0010
0001
0010
,
0100
0010
0001
0010
0100
0010
0001
0010
,
0100
0010
0001
0010
0100
0010
0001
0010
,
0100
0010
0001
0010
0100
0010
0001
0010
,
0100
0010
0001
0010
0100
0010
0001
0010
,
0100
0010
0001
0010
0100
0010
0001
0010
,
0100
0010
0001
0010
0100
0010
0001
0010
,
0100
0010
0001
0010
0100
0010
0001
0010
,
0100
0010
0001
0010
0100
0010
0001
0010
,
0100
0010
0001
0010
0100
0010
0001
0010
,
0100
0010
0001
0010
0100
0010
0001
0010
,
0100
0010
0001
0010
0100
0010
0001
0010
,
0100
0010
0001
0010
0100
0010
0001
0010
,
0100
0010
0001
0010
0100
0010
0001
0010
,
0100
0010
3001
0000
1111
0000
1111
0000
,
1111
1111
1111
1111
,
1111
1111
1111
1111
,
1111
1111
1111
1111
,
1111
1111
1111
1111
,
1110
1110
1111
1111
,
1111
1111
1111
1111
,
1111
1111
1111
1111
,
1111
1111
1111
1111
,
1111
1111
0000
0000
;

//---------------dance-single - ----------------
#NOTES:
     dance-single:
     :
     Hard:
     1:
     1.000,1.000,1.000,1.000,1.000,1587.000,1173.000,507.000,0.000,1368.000:
2002
1000
0001
0000
1000
0001
2000
3002
0003
2000
3000
0002
0003
2000
3000
0002
0003
2000
3000
0002
0003
0000
2000
3000
,
0002
0003
2000
0000
3000
0000
0000
0000
0000
0000
0000
0000
0000
0020
2230
3302
0000
0023
2230
3302
0003
0020
2230
3302
,
0000
0023
2230
0302
3000
0023
2230
3002
2000
0003
0010
3320
0200
2030
0020
3330
2000
3000
0000
0000
0000
0000
0000
0000
,
0000
0200
0000
0000
0000
0000
0000
0002
0000
0000
0000
0003
0000
0000
0000
0000
0000
0000
2000
0000
0000
0320
0000
0000
,
0030
0000
0000
0020
0030
0200
0000
0300
0000
3000
0000
0000
0000
0000
0000
0000
0000
0000
0000
0000
0000
0000
0000
0000
,
0000
2200
0002
3303
0000
0000
2210
3300
0002
0223
2030
3302
0003
0020
2230
3302
0023
0200
2030
3302
0003
0220
2030
3322
,
0000
0033
2200
3302
0000
0223
2030
3302
0003
0020
2230
3302
0000
0023
0200
2030
3302
0003
0020
2230
0000
3320
0200
0330
,
2211
3300
0020
0000
2230
3302
0000
2223
0030
3302
0003
0220
2030
3300
0000
0000
0000
0000
0020
0200
2030
3300
0202
0000
,
2303
3000
0000
0002
0000
0223
2030
3300
0002
2203
3320
0030
1000
0002
0223
2030
0002
0003
3320
0000
2230
3002
0303
2220
,
0330
0222
3333
0220
2000
3332
0003
0000
2200
3300
2200
3302
2200
0003
3320
0000
0032
2203
3320
0000
2200
0030
3302
0023
,
2230
0300
3002
0023
2230
3300
0002
0023
2230
3300
2202
3323
2200
3030
0302
2003
3020
2230
3302
0000
0223
2030
3300
2201
,
3320
2200
0032
3303
0020
0200
2030
3302
2103
3020
0200
0030
2002
3303
0220
0030
0302
0023
2230
3302
0003
0020
2200
0030
,
3300
0000
0022
2233
3320
2230
3302
0020
2233
3302
0003
0220
2030
3302
0003
2220
3030
0302
0023
2200
3330
0002
0023
2230
,
0002
3303
0020
2200
0030
3302
0023
2200
3332
0000
0023
1130
0000
0000
0000
0000
0000
0000
0000
0000
0000
0000
0000
0000
,
0000
0000
0000
0000
0000
0000
1111
0000
1111
1111
0000
1111
1111
0000
1111
0000
1111
0000
1111
0000
1111
0000
1111
0000
,
1111
0000
1111
0000
1111
0000
1111
0000
1111
0000
1111
0000
1111
0000
1111
0000
1111
0000
1111
0000
0000
1111
0000
1111
,
0000
1111
0000
1111
0000
1111
0000
1111
0000
1111
0000
1111
0000
1111
0000
1111
0000
1111
0000
1111
0000
1111
0000
1111
,
0000
1111
0000
1111
0000
0000
1111
0000
1111
0000
1111
0000
1111
0000
1111
0000
1111
0000
1111
0000
1111
0000
1111
0000
,
1111
0000
1111
0000
1111
0000
1111
0000
1111
0000
1111
0000
1111
0000
0000
1111
0000
1111
0000
1111
0000
1111
0000
1111
,
0000
1111
0000
1111
0000
1111
0000
1111
0000
1111
0000
1111
0000
1111
0000
1111
0000
1111
0000
1111
0000
1111
0000
0000
,
0000
0000
0000
0000
0000
0000
0000
0000
0000
0000
0000
1111
0000
1111
0000
1111
0000
1111
0000
1111
0000
1111
0000
1111
,
0000
1111
0000
1111
0000
1111
0000
1111
0000
1111
0000
1111
0000
1111
0000
1111
0000
1111
0000
1111
0000
1111
0000
1111
,
0000
1111
0000
1111
0000
1111
0000
1111
0000
1111
0000
1111
0000
1111
0000
1111
0000
1111
0000
1111
0000
1111
0000
1111
,
1111
1111
1111
1111
1111
1111
1111
1111
1111
1111
1111
1111
,
1111
0000
1111
1111
0000
1111
0000
1111
0000
1111
0000
1111
0000
1111
0000
1111
0000
1111
0000
1111
0000
1111
0000
1111
,
0000
1111
0000
1111
0000
1111
1111
0000
1111
0000
1111
0000
1111
0000
1111
0000
1111
0000
1111
0000
1111
0000
1111
0000
,
1111
1111
1111
1111
1111
1111
1111
1111
1111
1111
1111
1111
,
1111
1111
1111
1111
1111
1111
1111
1111
1111
1111
1111
1111
,
1111
0000
1111
0000
1111
0000
1111
0000
1111
0000
1111
0000
1111
0000
1111
0000
1111
0000
1111
0000
0000
1111
0000
1111
,
0000
1111
0000
1111
0000
1111
0000
1111
0000
1111
0000
1111
0000
1111
0000
1111
0000
1111
0000
1111
0000
1111
0000
1111
,
1111
1111
1111
1111
1111
1111
1111
1111
1111
1111
1111
1111
,
1111
1111
1111
1111
1111
1111
1111
1111
1111
1111
1111
1111
,
1111
0000
1111
0000
1111
0000
1111
0000
0000
1111
0000
1111
0000
1111
0000
1111
0000
1111
0000
1111
0000
1111
0000
1111
,
0000
0000
1111
0000
0000
0000
1111
0000
0000
0000
1111
0000
0000
0000
1111
0000
0000
0000
1111
0000
0000
0000
1111
0000
0000
0000
1111
0000
0000
0000
1111
0000
0000
0000
0000
0000
1111
0000
0000
1111
0000
0000
0000
1111
0000
0000
0000
1111
,
0000
0000
0000
1111
0000
0000
0000
1111
0000
0000
0000
1111
0000
0000
0000
1111
0000
0000
0000
1111
0000
0000
0000
1111
0000
0000
0000
1111
0000
0000
0000
1111
0000
0000
0000
1111
0000
0000
0000
1111
0000
0000
0000
1111
0000
0000
0000
1111
,
0000
0000
0000
1111
0000
0000
0000
1111
0000
0000
0000
1111
0000
0000
0000
1111
0000
0000
0000
1111
0000
0000
0000
1111
0000
0000
0000
1111
0000
0000
0000
1111
0000
0000
0000
1111
0000
0000
0000
1111
0000
0000
0000
1111
0000
0000
0000
1111
,
0000
0000
0000
0000
0000
0000
0000
0000
0000
0000
0000
0000
1111
0000
0000
0000
0000
0000
0000
0000
0000
0000
0000
0000
0000
0000
0000
0000
1111
0000
0000
0000
0000
0000
0000
0000
0000
0000
0000
0000
0000
0000
0000
0000
1111
0000
0000
0000
0000
0000
0000
0000
0000
0000
0000
0000
0000
0000
0000
0000
1111
0000
0000
0000
0000
0000
0000
0000
0000
0000
0000
0000
1111
0000
0000
0000
0000
0000
1111
0000
0000
0000
0000
0000
0000
0000
0000
1111
0000
0000
0000
0000
0000
0000
0000
0000
0000
0000
0000
0000
0000
0000
0000
1111
0000
0000
0000
0000
0000
0000
0000
0000
0000
0000
0000
0000
0000
0000
0000
1111
0000
0000
0000
0000
0000
0000
0000
0000
0000
0000
0000
0000
0000
0000
0000
1111
0000
0000
0000
0000
0000
0000
0000
0000
1111
0000
0000
0000
0000
0000
0000
0000
0000
0000
0000
0000
0000
0000
0000
0000
1111
0000
0000
0000
0000
0000
0000
0000
1111
0000
0000
0000
0000
0000
0000
0000
0000
0000
0000
0000
0000
0000
0000
0000
1111
0000
0000
0000
0000
0000
0000
0000
,
0000
1111
0000
1111
0000
1111
0000
1111
0000
1111
0000
1111
0000
1111
0000
1111
0000
1111
0000
1111
0000
1111
0000
1111
,
0000
1111
0000
1111
0000
0000
1111
0000
1111
0000
1111
0000
1111
0000
1111
0000
1111
0000
1111
0000
1111
0000
1111
0000
,
1111
1111
1111
1111
1111
1111
1111
1111
1111
1111
1111
1111
,
1111
1111
1111
1111
1111
1111
1111
1111
1111
1111
1111
1111
,
1111
1111
1111
1111
1111
1111
1111
1111
1111
1111
0000
0000
,
1111
1111
1111
1111
1111
1111
1111
1111
1111
1111
1111
1111
,
1111
1111
1111
1111
0000
0000
1111
1111
1111
1111
1111
1111
,
1111
1111
1111
1111
1111
1111
1111
1111
1111
1111
1111
1111
,
1111
1111
1111
1111
1111
1111
1111
1111
1111
1111
1111
1111
,
1111
0000
0000
1111
0000
1111
0000
1111
0000
1111
0000
1111
0000
1111
0000
1111
0000
1111
0000
1111
0000
1111
0000
1111
,
0000
1111
0000
1111
0000
1111
0000
1111
0000
1111
0000
0000
1111
0000
1111
0000
1111
0000
1111
0000
1111
0000
1111
0000
,
1111
1111
1111
1111
1111
1111
1111
1111
1111
1111
1111
1111
,
1111
1111
1111
1111
1111
1111
1111
1111
1111
1111
1111
1111
,
1111
1111
1111
1111
1111
1111
1111
1111
1111
1111
1111
1111
,
1111
0000
0000
1111
0000
1111
0000
1111
0000
1111
0000
1111
0000
1111
0000
1111
0000
1111
0000
1111
0000
1111
0000
1111
,
0000
1111
0000
1111
0000
1111
0000
1111
0000
1111
0000
0000
1111
0000
1111
0000
1111
0000
1111
0000
1111
0000
1111
0000
,
1111
1111
1111
1111
1111
1111
1111
1111
1111
1111
0000
0000
,
0000
0000
0000
0000
1111
1111
1111
1111
1111
1111
1111
1111
,
1111
1111
1111
1111
1111
1111
1111
1111
1111
1111
1111
1111
,
1111
0000
1111
0000
1111
0000
1111
0000
1111
0000
1111
0000
1111
0000
1111
0000
1111
0000
1111
0000
1111
1111
0000
1111
,
0000
1111
0000
1111
0000
1111
0000
1111
0000
1111
0000
1111
0000
1111
0000
1111
0000
1111
0000
1111
0000
1111
0000
1111
,
1111
1111
1111
1111
1111
1111
1111
1111
1111
1111
1111
1111
,
1111
0000
1111
1111
0000
1111
0000
1111
0000
1111
0000
1111
0000
1111
0000
1111
0000
1111
0000
1111
0000
1111
0000
1111
,
0000
1111
0000
1111
0000
1111
0000
1111
0000
1111
0000
1111
0000
1111
0000
1111
0000
1111
0000
1111
0000
1111
0000
1111
,
0000
1111
0000
1111
0000
1111
0000
1111
0000
1111
0000
1111
0000
1111
0000
1111
0000
1111
0000
1111
0000
1111
0000
1111
,
0000
1111
0000
1111
0000
1111
0000
1111
0000
1111
0000
1111
0000
1111
0000
1111
0000
0000
1111
0000
1111
0000
1111
0000
,
1111
0000
1111
0000
1111
0000
1111
0000
1111
0000
1111
0000
1111
0000
1111
0000
1111
0000
1111
0000
1111
1111
0000
1111
,
0000
1111
0000
1111
0000
1111
1111
0000
1111
1111
0000
1111
0000
1111
0000
1111
0000
1111
0000
1111
0000
1111
0000
1111
,
0000
1111
0000
1111
0000
1111
0000
1111
0000
1111
0000
1111
0000
1111
0000
1111
0000
1111
0000
1111
0000
1111
0000
1111
,
0000
1111
0000
1111
0000
1111
0000
1111
0000
1111
0000
1111
0000
1111
0000
1111
0000
0000
1111
0000
1111
0000
1111
0000
,
1111
1111
1111
1111
1111
1111
1111
1111
1111
1111
1111
1111
,
1111
1111
1111
1111
1111
1111
1111
1111
1111
1111
0000
0000
,
1111
0000
0000
1111
1111
1111
0000
1111
1111
0000
1111
1111
,
0000
1111
1111
0000
1111
1111
1111
1111
1111
1111
1111
1111
,
1111
0000
1111
0000
1111
0000
1111
0000
1111
0000
1111
0000
1111
0000
1111
0000
1111
0000
1111
0000
1111
1111
0000
1111
,
0000
1111
0000
1111
0000
1111
0000
1111
0000
1111
0000
1111
0000
1111
0000
1111
0000
1111
0000
1111
0000
1111
0000
1111
,
1111
1111
1111
1111
1111
1111
1111
1111
1111
1111
1111
1111
,
1111
0000
1111
1111
0000
1111
0000
1111
0000
1111
0000
1111
0000
1111
0000
1111
0000
1111
0000
1111
0000
1111
0000
1111
,
0000
1111
0000
1111
0000
1111
0000
1111
0000
1111
0000
1111
0000
1111
0000
1111
0000
1111
0000
1111
0000
1111
0000
1111
,
0000
1111
0000
1111
0000
1111
0000
1111
0000
1111
0000
1111
0000
1111
0000
1111
0000
1111
0000
1111
0000
1111
0000
1111
,
0000
1111
0000
1111
0000
1111
0000
1111
0000
1111
0000
1111
0000
1111
0000
1111
0000
0000
1111
0000
1111
0000
1111
0000
,
1111
0000
1111
0000
1111
0000
1111
0000
1111
0000
1111
0000
1111
0000
1111
0000
1111
0000
1111
0000
1111
1111
0000
1111
,
0000
1111
0000
1111
0000
1111
1111
0000
1111
1111
0000
1111
0000
1111
0000
1111
0000
1111
0000
1111
0000
1111
0000
1111
,
0000
1111
0000
1111
0000
1111
0000
1111
0000
1111
0000
1111
0000
1111
0000
1111
0000
1111
0000
1111
0000
1111
0000
1111
,
0000
1111
0000
1111
0000
1111
0000
1111
0000
1111
0000
1111
0000
1111
0000
1111
0000
0000
1120
0000
0000
0000
0000
0000
,
0031
1120
2030
3101
,
0201
0310
1110
0000
,
1100
0000
1111
0000
1111
0000
1111
0000
1111
0000
1111
0000
1111
0000
1111
1111
1111
1111
1111
1111
1111
1111
1111
1111
,
0000
1111
1111
1111
1111
1111
1111
1111
1111
1111
1111
1111
1111
0000
1111
0000
1111
0000
0000
0000
0000
0000
1111
0000
,
1111
0000
0000
0000
1111
0000
0000
0000
0000
0000
0000
0000
0000
0000
0000
0000
1111
0000
0000
0000
1111
0000
0000
0000
2200
0000
0011
0000
0000
0000
0000
0000
0011
0000
0000
0011
3300
1111
0000
0000
0000
0000
1111
0000
0000
0000
1111
0000
,
0000
0000
0000
0000
0000
1111
0000
0000
0000
0000
0000
0000
0101
0000
0000
0000
0000
0000
1100
0000
0000
0001
0000
0000
,
0100
0000
0000
0000
0002
0000
0000
0000
1223
2000
0000
0000
3330
1000
2000
0000
,
0000
3001
0100
0010
2000
3001
1001
1111
1111
1110
1110
1110
1110
1111
1111
1111
,
1111
1111
1111
1111
1111
1111
1110
1110
1111
1111
1111
0000
0000
0000
0000
0000
,
0000
0000
0000
1111
1111
1111
1111
1111
1111
1111
1111
1111
1111
0000
0000
0000
0000
0000
0000
0000
1111
0000
0000
0000
1111
0000
0000
0000
1111
0000
0000
0000
1111
0000
0000
0000
1111
0000
0000
0000
1111
0000
0000
0000
1111
0000
0000
0000
1111
0000
0000
0000
1111
0000
0000
0000
1110
0000
0000
0000
1110
0000
0000
0000
,
1111
1111
1111
1111
1111
1111
1111
2212
3303
2112
0110
0110
0110
0110
0110
0110
,
0110
0000
0000
0000
0000
0000
0000
0000
0000
0000
0000
0000
0110
0000
0000
0000
0000
0000
0000
0000
0000
0000
0000
0000
0110
0000
0000
0000
0000
0000
0000
0000
0000
0000
0000
0000
0110
0000
0000
0000
0000
0000
0000
0000
0000
0000
0000
0000
0110
0000
0000
0110
0000
0000
0110
0000
0000
0110
0000
0000
0110
0000
0000
0110
0000
0000
0110
0000
0000
0110
0000
0000
0110
0000
0000
0110
0000
0000
0110
0000
0000
0110
0000
0000
0110
0000
0000
0000
0000
0000
0100
0000
0010
0000
0000
0000
0000
0000
0000
0000
0010
0000
0100
0000
0000
0000
0000
0000
0010
0000
0000
0000
0000
0000
0100
0000
0000
0000
0000
0000
0010
0000
0000
0000
0000
0000
0100
0000
0000
0000
0000
0000
0010
0000
0000
0000
0000
0000
0100
0000
0010
0000
0000
0000
0000
0000
0000
0000
0000
0000
0100
0000
0010
0000
0000
0000
0010
0000
0000
0000
0000
0000
0100
0000
0000
0000
0000
0000
0010
0000
0000
0000
0000
0000
0100
0000
0000
0000
0000
0000
0010
0000
0000
0000
0000
0000
0100
0000
0000
0000
0000
0000
,
0000
0000
0000
0000
0000
0000
0100
0000
0000
0000
0000
0000
0010
0000
0000
0000
0000
0000
0100
0000
0000
0000
0000
0000
0110
0000
0000
0000
0000
0000
0110
0000
0000
0000
0000
0000
0000
0000
0000
0000
0000
0000
0000
0000
0000
0110
0000
0000
3110
0000
0000
2110
0000
0000
0110
0000
0000
0110
0000
0000
3003
0000
0000
0000
0000
0000
0000
0000
0000
0000
0000
0000
0000
0000
0000
0000
1111
0000
0000
0000
1110
0000
0000
0000
1110
0000
0000
0000
1111
0000
0000
0000
1111
0000
0000
0000
1111
0000
0000
0000
1111
0000
0000
0000
0000
0000
0000
0000
0000
0000
0000
0000
0000
0000
0000
0000
0000
0000
0000
0000
1111
0000
0000
0000
0000
0000
1111
0000
0000
0000
0000
0000
1111
0000
0000
0000
0000
0000
1111
0000
0000
0000
0000
0000
1111
0000
0000
0000
0000
0000
1111
0000
0000
0000
0000
0000
1111
0000
0000
0000
0000
0000
1111
0000
0000
0000
0000
0000
1111
0000
0000
0000
0000
0000
1111
0000
0000
0000
0000
0000
1110
0000
0000
0000
0000
0000
1110
0000
0000
0000
0000
0000
,
1111
0000
0000
0000
0000
0000
1111
0000
0000
0000
0000
0000
1111
0000
0000
0000
0000
0000
1111
0000
0000
0000
0000
0000
1000
0000
0000
0001
0000
0000
1000
0000
0000
0001
0000
0000
1000
0000
0000
0001
0000
0000
2000
0000
0000
3001
0000
0000
2000
0000
0000
3001
0000
0000
1000
0000
0000
0001
0000
0000
1000
0000
0000
0001
0000
0000
1000
0000
0000
0002
0000
0000
1003
0000
0000
0001
0000
0000
2000
0000
0000
3002
0000
0000
1003
0000
0000
0002
0000
0000
1003
0000
0000
0001
0000
0000
2000
0000
0000
3001
0000
0000
1000
0000
0000
0001
0000
0000
2100
0000
0000
3001
0000
0000
0012
0000
0000
2003
0000
0000
3100
0000
0000
2002
0000
0000
3013
0000
0000
0001
0000
0000
0101
0000
0000
0002
0000
0000
2013
0000
0000
3001
0000
0000
2102
0000
0000
3003
0000
0000
1001
0000
0000
0000
0000
0000
1000
0000
0000
0001
0000
0000
1000
0000
0001
0001
0000
0000
2001
0000
0000
3001
0001
0000
1001
0000
0000
0001
0000
0000
2001
0000
0000
3001
0000
0000
1001
0000
0000
0001
0000
0000
,
0000
0000
0000
0010
0010
0000
0010
0000
0010
0000
0000
0000
0010
0000
0000
0010
0010
0000
0010
0000
0010
0010
0000
0000
0010
0000
0000
0010
0010
0000
0010
0000
0010
0010
0000
0000
0010
0000
0000
0010
0010
0000
0010
0000
0010
0010
0000
0000
0000
0000
0000
0010
0000
0000
0010
0000
0000
0010
0000
0000
0010
0000
0000
0010
0000
0000
0010
0000
0000
0010
0000
0000
0010
0000
0000
0010
1101
0000
0010
0000
1101
0010
0000
0000
1111
0000
0000
0010
1101
0000
0010
0000
1101
0000
0000
0000
1101
0000
0000
0010
1101
0000
0010
0000
1100
0010
0000
0000
1110
0000
0000
0010
1101
0000
0010
0000
1100
0010
0000
0000
1110
0000
0000
0010
1100
0000
0010
0000
1100
0010
0000
0000
1111
0000
0000
0010
1101
0000
0010
0000
1100
0010
0000
0000
1010
0000
0000
0010
1111
0000
0000
0000
1111
0000
0000
0000
1111
0000
0000
0000
1111
0000
0000
0000
1111
0000
0000
0000
1111
0000
0000
0000
1111
0000
0000
0000
1111
0000
0000
0000
1111
0000
0000
0000
1111
0000
0000
0000
1111
0000
0000
0000
,
1001
1111
1111
1111
1111
1111
1111
1111
1111
1111
1111
1111
1221
1001
0000
0000
0000
2002
0000
0000
0000
0000
0000
0000
0330
0000
0000
0000
0000
0000
0000
0000
0000
0000
0000
0000
0110
0000
0000
0000
0000
0000
0000
0000
0000
0000
0000
0000
,
0220
0330
0110
0220
,
0330
0010
0220
0330
,
0220
0030
0300
0000
,
0200
0300
0010
0200
,
0300
0020
0030
0100
,
0000
0000
0200
0320
,
0030
0020
0030
0120
,
0030
0020
0030
0220
,
0030
0320
0230
0320
,
0230
0320
0200
0030
,
0320
0230
0320
0230
,
0300
0000
0000
0000
,
0000
0020
0230
0320
,
0230
0320
0200
0330
,
0220
0330
0020
0230
,
0320
0230
0320
0230
,
0320
0200
0330
0000
,
0220
0030
0300
0000
,
0000
0000
0000
0000
,
0000
0000
0000
0000
,
3000
1110
0003
0000
2221
0000
0331
0000
,
3111
1110
2220
3300
,
1100
1130
2222
0033
,
3320
1132
2213
0020
,
3001
0331
2002
0000
,
0000
0000
0000
0000
,
0000
0000
0000
0000
,
0000
0000
0000
0000
0000
0000
0000
0000
0000
0000
0000
0000
0000
0000
0000
0000
0000
0200
0000
0000
0000
0300
0220
0000
0000
0000
0330
0220
0330
0110
0100
0200
0300
0220
0330
0220
0330
0220
0330
0220
0330
0120
0230
0320
0030
0020
0230
0000
0320
0230
0320
0230
0320
0030
0220
0300
0230
0320
0230
0320
0230
0020
0300
0230
,
0320
0000
0000
0030
0000
0000
0020
0000
0000
0200
0000
0000
0030
0000
0000
0320
0000
0000
0230
0000
0000
0020
0000
0000
0300
0000
0000
0230
0000
0000
0320
0000
0000
0030
0000
0000
0200
0000
0000
0320
0000
0000
0230
0000
0000
0320
0000
0000
0200
0000
0000
0030
0000
0000
0320
0000
0000
0230
0000
0000
0320
0000
0000
0000
0000
0000
0230
0000
0000
0320
0000
0000
0230
0000
0000
0020
0000
0000
0330
0000
0000
0000
0000
0000
0000
0000
0000
0000
0000
0000
0000
0000
0000
0000
0000
0000
0110
0000
0000
0000
0000
0000
0000
0000
0000
0000
0000
0000
0000
0000
0000
0000
0000
0000
0000
0000
0000
0000
0000
0000
0000
0000
0000
0000
0000
0000
0000
0000
0000
0000
0000
0000
0000
0000
0000
0000
0000
0000
0000
0000
0000
0000
0000
0000
0210
0000
0000
0000
0000
0000
0000
0000
0320
0000
0000
0000
0000
0000
0000
0000
0230
0000
0000
0000
0000
0000
0000
0000
0320
0000
0000
0000
0000
0000
0000
0000
0230
0000
0000
0000
0000
0000
0000
0000
0320
0000
0000
0000
0000
0000
0000
0000
,
0230
0320
0230
0320
0000
0230
0320
0230
0320
0230
0320
0230
0020
0300
0230
0320
0230
0320
0200
0030
0320
0230
0300
0220
,
0300
0200
0030
0320
0230
0320
0230
0320
0000
0230
0320
0230
0320
0000
0200
0330
0200
0300
0000
0000
0000
0000
0220
0330
,
0100
0220
0330
0110
0010
0100
0100
0220
0330
0200
0300
0100
0200
0300
0010
0000
0200
0300
0020
0030
0200
0300
0020
0030
,
0210
0300
0010
0200
0300
0020
0130
0200
0300
0010
0200
0300
0120
0030
0200
0300
0010
0020
0130
0100
0200
0320
0030
0010
,
0010
0200
0300
0100
0010
0000
3113
0000
0000
0002
0000
0000
1223
0000
0000
2030
0000
0000
3312
0000
0000
0003
0000
0000
,
2221
0030
3312
0003
2210
0000
3312
0000
,
1113
2220
3332
2220
,
3333
0200
1300
0200
,
0000
0300
2220
0330
,
3022
2230
3303
0020
,
0030
0000
2202
3303
,
0220
2000
0030
3022
,
0333
2220
0030
3302
,
0000
0003
2200
3302
,
0003
2200
3300
0002
,
0003
0000
0000
0000
,
2000
3000
0000
0002
,
0000
0223
2030
3300
,
0000
0000
0000
0000
,
0000
1011
1111
1111
,
1111
1111
1111
1111
,
1111
1111
1111
1111
,
1111
1111
1111
1111
,
1111
1111
1111
1111
,
1111
1111
1111
1111
,
1111
1111
1110
0010
,
1111
1111
1111
1111
,
1111
1111
1111
1111
,
1111
1111
1111
1111
,
1111
1111
1111
1111
,
1110
1110
1111
1110
,
1110
1111
1110
1110
,
1111
1111
1111
1111
,
1111
1000
1000
0000
;
